百事高音乐论坛

   
   找回密码 | 注册

QQ登录

只需一步,快速开始

查看: 8308|回复: 56

[影音软件] Exact Audio Copy V1.0 beta 3 抓轨软件使用手册【2014年1月更新】

[复制链接]
发表于 2012-12-31 23:20:46 | 显示全部楼层 |阅读模式
本帖最后由 帅的感动党 于 2016-1-9 18:46 编辑

近些年来,我们很多朋友都有了不少自己的一些收藏CD,有的CD还是珍藏版或者限量版,我们从最早的EAC软件0.95至后来的0.99到现在使用的1.0。EAC在不断完善更新它的强大功能,更多的使用细节和技术参数我相信,有大多朋友都没有让EAC发挥到最大的潜能。之前,我做过0.99版本的教程,而现在1.0版本的软件自2011年9月22日至今,已经有近三年的时间了,在这段时间中,我也从原来的老版本更换了现在的1.0版本。当然,新的软件的一些新功能和使用心得与老版本相比还是有所差别的。我就将1.0版本的使用心得做了一个简单的教程和图片,分享给大家。以便我们今后在自己有CD的时候能够正确的使用EAC软件,让它的强大功能为我们提取更精确的数据音乐。




第一步:下载一个官方网站的EAC。

地址在这里!http://www.exactaudiocopy.de/en/index.php/resources/download/
如果上面的地址无法下载,那么下面的将以论坛附件形式上传。

百度云盘
http://pan.baidu.com/s/1dEdFWCL



第二步:安装


红色区域内为可选项,这项功能只有十张CD的测试,测试完毕之后就需要购买了,所以,可以忽略此选项。


第三步:安装完毕后预设功能




安装完毕之后,会弹出对话框,EAC自动检测光驱的性能,并显示出来。后期可以根据需要再次进行设置。

邮箱必须填写,不然以后放入的CD无法自动连接网络读取CD的曲目信息。


然后是选择压缩的格式,当然,我主要是以无损格式的FLAC压缩方式为介绍的,所以,建议选择FLAC。FLAC编码器EAC1.0版本已经自动安装好,所以无需额外的编码器。

第四步:介绍一下EAC的设置选项。请根据图例设置你的EAC,这样,能够保持最精确的设置状态抓取CD上的音乐。


红色区域内可以根据自己喜好,选择中文简体或者中文繁体。而EAC日志我使用的是英文,因为有时候我购买的CD抓轨之后发布分享在了国外,所以,英语比较通用一点。


这里显示可用插件是因为我在安装的时候选择了最后一项CTDB Plugin,所以我这里会有这个插件!


第五步:驱动器选项

请按照红色区域内的标注选择自己的选项

检测指令读数点击一下,然后软件会自动读取你EAC型号所需要的参数模式。

红色区域内驱动器读取偏移校正值需要特别注意!不同型号不同品牌的驱动器读取采样偏移校正值是不一样的,EAC会自动检测你的光驱品牌和型号来调整你的指数,比如我以前使用的是明基DW2200值是+6,而现在先锋DVR-219L的值也是+6。具体参数请看这里!http://www.accuraterip.com/driveoffsets.htm

蓝色区域内可以根据自己喜好来选择,选择了它之后,抓取的时间没有明显变化,假如你有一张表面有划痕的CD,那么抓取的时间会有所延长,
第六步:压缩选项

因为EAC集成了FLAC格式的编码器,所以当你设置为FLAC的时候,压缩选项就是FLAC编码的无损格式。

下面,我就以ATB的原版CD作为实例,介绍一下抓轨方法!



红色区域内是EAC软件可以选用的CD信息查询系统。可以根据自己喜好选择。

首先,点击键盘上的F4键,如图,让EAC自动读取CD曲目之间的间隙。

音轨间隙读取完毕之后,选择追加音轨间隙至上一音轨,这样可以使曲目之间的间隙更加精确。


读取完毕之后,大家可以看到EAC里面的音轨间隙。
如果你购买的是正版CD,CD的曲目信息是可以从EAC上面读取到曲目信息的,发行年以及专辑名称。刚刚发行的CD,数据库可能还没有CD的曲目的相关信息,所以可能读取不出来,所以不能以EAC是否能够读取CD的曲目信息来判断CD是否正版。


然后选择以文本方式保存至CD即将抓取到的文件夹内。

如果你想把你的CD曲目抓取成分轨格式,就是一首一首的单曲加CUE (tracks+.cue)模式。那么请按照如图所示选择。


选择已校正间隙的CUE节目单保存后,选择测试并抓取已压缩的音轨。

如果你想把你的CD曲目抓取整轨格式,就是一条音轨加一个CUE索引文件 (image+.cue)模式。那么就请你按照以下选项抓取!


好了!所有设置都完毕了,下面就该抓取了,我这个帖子是2014年1月27日19点45分开始设置抓取,大家请注意以下抓轨日志的时间20点50分。也就是说一张CD抓取用了1个小时的时间,所谓慢工出细活,大概就是这么个意思,我们的设置让EAC用了更多的时间在测试、效验、读取、抓取、压缩。所以这样的设置让我们等待的时间更长了!但是,音轨缺更加精确!

本帖子中包含更多资源

您需要 登录 才可以下载或查看,没有帐号?注册

x
回复

使用道具 举报

 楼主| 发表于 2013-1-6 21:27:57 | 显示全部楼层
本帖最后由 帅的感动党 于 2014-1-27 23:52 编辑



EAC抓轨示例日志
  1. Exact Audio Copy V1.0 beta 3 from 29. August 2011

  2. EAC extraction logfile from 27. January 2014, 20:50

  3. ATB / Movin' Melodies [UK Bonus Disc]

  4. Used drive  : PIONEER DVD-RW  DVR-219L   Adapter: 5  ID: 0

  5. Read mode               : Secure
  6. Utilize accurate stream : Yes
  7. Defeat audio cache      : Yes
  8. Make use of C2 pointers : No

  9. Read offset correction                      : 6
  10. Overread into Lead-In and Lead-Out          : No
  11. Fill up missing offset samples with silence : Yes
  12. Delete leading and trailing silent blocks   : No
  13. Null samples used in CRC calculations       : Yes
  14. Used interface                              : Native Win32 interface for Win NT & 2000
  15. Gap handling                                : Appended to previous track

  16. Used output format              : User Defined Encoder
  17. Selected bitrate                : 1024 kBit/s
  18. Quality                         : High
  19. Add ID3 tag                     : No
  20. Command line compressor         : C:\Program Files\Exact Audio Copy\FLAC\FLAC.EXE
  21. Additional command line options : -6 -V -T "ARTIST=%artist%" -T "TITLE=%title%" -T "ALBUM=%albumtitle%" -T "DATE=%year%" -T "TRACKNUMBER=%tracknr%" -T "GENRE=%genre%" -T "COMMENT=%comment%" -T "BAND=%albuminterpret%" -T "ALBUMARTIST=%albuminterpret%" -T "COMPOSER=%composer%" %haslyrics%--tag-from-file=LYRICS="%lyricsfile%"%haslyrics% -T "DISCNUMBER=%cdnumber%" -T "TOTALDISCS=%totalcds%" -T "TOTALTRACKS=%numtracks%" %hascover%--picture="%coverfile%"%hascover% %source% -o %dest%


  22. TOC of the extracted CD

  23.      Track |   Start  |  Length  | Start sector | End sector
  24.     ---------------------------------------------------------
  25.         1  |  0:00.00 |  2:08.02 |         0    |     9601   
  26.         2  |  2:08.02 |  4:24.28 |      9602    |    29429   
  27.         3  |  6:32.30 |  4:11.12 |     29430    |    48266   
  28.         4  | 10:43.42 |  0:58.13 |     48267    |    52629   
  29.         5  | 11:41.55 |  2:39.09 |     52630    |    64563   
  30.         6  | 14:20.64 |  5:33.13 |     64564    |    89551   
  31.         7  | 19:54.02 |  2:40.60 |     89552    |   101611   
  32.         8  | 22:34.62 |  6:18.10 |    101612    |   129971   
  33.         9  | 28:52.72 |  7:01.08 |    129972    |   161554   
  34.        10  | 35:54.05 |  4:25.60 |    161555    |   181489   
  35.        11  | 40:19.65 |  8:25.67 |    181490    |   219431   
  36.        12  | 48:45.57 |  5:56.10 |    219432    |   246141   
  37.        13  | 54:41.67 |  3:51.38 |    246142    |   263504   
  38.        14  | 58:33.30 |  8:06.50 |    263505    |   300004   


  39. Track  1

  40.      Filename E:\ATB - Movin Melodies [UK] 1999\01. The First Tones.wav

  41.      Pre-gap length  0:00:02.00

  42.      Peak level 96.7 %
  43.      Extraction speed 0.8 X
  44.      Track quality 100.0 %
  45.      Test CRC FF2B8E55
  46.      Copy CRC FF2B8E55
  47.      Accurately ripped (confidence 6)  [49380C1E]  (AR v2)
  48.      Copy OK

  49. Track  2

  50.      Filename E:\ATB - Movin Melodies [UK] 1999\02. Emotion.wav

  51.      Peak level 100.0 %
  52.      Extraction speed 1.0 X
  53.      Track quality 100.0 %
  54.      Test CRC 5F6446BF
  55.      Copy CRC 5F6446BF
  56.      Accurately ripped (confidence 6)  [C5D91698]  (AR v2)
  57.      Copy OK

  58. Track  3

  59.      Filename E:\ATB - Movin Melodies [UK] 1999\03. Underwater World.wav

  60.      Peak level 86.8 %
  61.      Extraction speed 1.1 X
  62.      Track quality 100.0 %
  63.      Test CRC 3DEFCF5D
  64.      Copy CRC 3DEFCF5D
  65.      Accurately ripped (confidence 6)  [C74FA1A5]  (AR v2)
  66.      Copy OK

  67. Track  4

  68.      Filename E:\ATB - Movin Melodies [UK] 1999\04. ZwischenStuck.wav

  69.      Peak level 100.0 %
  70.      Extraction speed 0.8 X
  71.      Track quality 100.0 %
  72.      Test CRC 132D0235
  73.      Copy CRC 132D0235
  74.      Accurately ripped (confidence 6)  [D212197C]  (AR v2)
  75.      Copy OK

  76. Track  5

  77.      Filename E:\ATB - Movin Melodies [UK] 1999\05. 9 P.M. (Till I Come).wav

  78.      Peak level 100.0 %
  79.      Extraction speed 1.1 X
  80.      Track quality 100.0 %
  81.      Test CRC 146B49A4
  82.      Copy CRC 146B49A4
  83.      Accurately ripped (confidence 6)  [A4994296]  (AR v2)
  84.      Copy OK

  85. Track  6

  86.      Filename E:\ATB - Movin Melodies [UK] 1999\06. Killer.wav

  87.      Peak level 99.3 %
  88.      Extraction speed 1.4 X
  89.      Track quality 100.0 %
  90.      Test CRC AFE01275
  91.      Copy CRC AFE01275
  92.      Accurately ripped (confidence 6)  [63F73648]  (AR v2)
  93.      Copy OK

  94. Track  7

  95.      Filename E:\ATB - Movin Melodies [UK] 1999\07. Don't Stop Me.wav

  96.      Peak level 100.0 %
  97.      Extraction speed 1.3 X
  98.      Track quality 100.0 %
  99.      Test CRC C07663EB
  100.      Copy CRC C07663EB
  101.      Accurately ripped (confidence 6)  [4734F5D1]  (AR v2)
  102.      Copy OK

  103. Track  8

  104.      Filename E:\ATB - Movin Melodies [UK] 1999\08. Obsession.wav

  105.      Peak level 100.0 %
  106.      Extraction speed 1.4 X
  107.      Track quality 99.9 %
  108.      Test CRC 94A49723
  109.      Copy CRC 94A49723
  110.      Accurately ripped (confidence 6)  [F87857CE]  (AR v2)
  111.      Copy OK

  112. Track  9

  113.      Filename E:\ATB - Movin Melodies [UK] 1999\09. My Dream.wav

  114.      Peak level 100.0 %
  115.      Extraction speed 1.7 X
  116.      Track quality 100.0 %
  117.      Test CRC 5DF59D00
  118.      Copy CRC 5DF59D00
  119.      Accurately ripped (confidence 6)  [60B3BCD3]  (AR v2)
  120.      Copy OK

  121. Track 10

  122.      Filename E:\ATB - Movin Melodies [UK] 1999\10. Kayama.wav

  123.      Peak level 99.3 %
  124.      Extraction speed 1.7 X
  125.      Track quality 100.0 %
  126.      Test CRC BC068CE9
  127.      Copy CRC BC068CE9
  128.      Accurately ripped (confidence 6)  [1DC7648B]  (AR v2)
  129.      Copy OK

  130. Track 11

  131.      Filename E:\ATB - Movin Melodies [UK] 1999\11. Beach Vibes by EFF.wav

  132.      Peak level 99.3 %
  133.      Extraction speed 1.9 X
  134.      Track quality 100.0 %
  135.      Test CRC 75C01B54
  136.      Copy CRC 75C01B54
  137.      Accurately ripped (confidence 6)  [D5C7CC91]  (AR v2)
  138.      Copy OK

  139. Track 12

  140.      Filename E:\ATB - Movin Melodies [UK] 1999\12. Movin' Melodies.wav

  141.      Peak level 100.0 %
  142.      Extraction speed 1.9 X
  143.      Track quality 100.0 %
  144.      Test CRC 28C2CD38
  145.      Copy CRC 28C2CD38
  146.      Accurately ripped (confidence 6)  [DDEDA6B8]  (AR v2)
  147.      Copy OK

  148. Track 13

  149.      Filename E:\ATB - Movin Melodies [UK] 1999\13. Sunburn.wav

  150.      Peak level 97.0 %
  151.      Extraction speed 1.9 X
  152.      Track quality 100.0 %
  153.      Test CRC EFFBCDD8
  154.      Copy CRC EFFBCDD8
  155.      Accurately ripped (confidence 6)  [D446EDD3]  (AR v2)
  156.      Copy OK

  157. Track 14

  158.      Filename E:\ATB - Movin Melodies [UK] 1999\14. Don't Stop.wav

  159.      Peak level 96.3 %
  160.      Extraction speed 2.1 X
  161.      Track quality 100.0 %
  162.      Test CRC 3DF8D02F
  163.      Copy CRC 3DF8D02F
  164.      Accurately ripped (confidence 5)  [0276B742]  (AR v2)
  165.      Copy OK


  166. All tracks accurately ripped

  167. No errors occurred

  168. End of status report

  169. ---- CUETools DB Plugin V2.1.3

  170. [CTDB TOCID: pJCj6CFi3ujdb0zMRtO5AwxGAUo-] found, Submit result: pJCj6CFi3ujdb0zMRtO5AwxGAUo- has been confirmed
  171. [bf137eb0] (01/10) No match
  172. [56abd4ee] (09/10) Accurately ripped


  173. ==== Log checksum 8DC1DE629A2EEC557FC7474CDAE428AAE356D6C2C74A15B38251DD902093B0EE ====
复制代码
EAC效验后CUE
  1. REM GENRE Electronic
  2. REM DATE 1999
  3. REM DISCID B70FA00E
  4. REM COMMENT "ExactAudioCopy v1.0b3"
  5. PERFORMER "ATB"
  6. TITLE "Movin' Melodies [UK Bonus Disc]"
  7. FILE "01. The First Tones.wav" WAVE
  8.   TRACK 01 AUDIO
  9.     TITLE "The First Tones"
  10.     PERFORMER "ATB"
  11.     INDEX 01 00:00:00
  12. FILE "02. Emotion.wav" WAVE
  13.   TRACK 02 AUDIO
  14.     TITLE "Emotion"
  15.     PERFORMER "ATB"
  16.     INDEX 01 00:00:00
  17. FILE "03. Underwater World.wav" WAVE
  18.   TRACK 03 AUDIO
  19.     TITLE "Underwater World"
  20.     PERFORMER "ATB"
  21.     INDEX 01 00:00:00
  22. FILE "04. ZwischenStuck.wav" WAVE
  23.   TRACK 04 AUDIO
  24.     TITLE "ZwischenStuck"
  25.     PERFORMER "ATB"
  26.     INDEX 01 00:00:00
  27. FILE "05. 9 P.M. (Till I Come).wav" WAVE
  28.   TRACK 05 AUDIO
  29.     TITLE "9 P.M. (Till I Come)"
  30.     PERFORMER "ATB"
  31.     INDEX 01 00:00:00
  32. FILE "06. Killer.wav" WAVE
  33.   TRACK 06 AUDIO
  34.     TITLE "Killer"
  35.     PERFORMER "ATB"
  36.     INDEX 01 00:00:00
  37. FILE "07. Don't Stop Me.wav" WAVE
  38.   TRACK 07 AUDIO
  39.     TITLE "Don't Stop Me"
  40.     PERFORMER "ATB"
  41.     INDEX 01 00:00:00
  42. FILE "08. Obsession.wav" WAVE
  43.   TRACK 08 AUDIO
  44.     TITLE "Obsession"
  45.     PERFORMER "ATB"
  46.     INDEX 01 00:00:00
  47. FILE "09. My Dream.wav" WAVE
  48.   TRACK 09 AUDIO
  49.     TITLE "My Dream"
  50.     PERFORMER "ATB"
  51.     INDEX 01 00:00:00
  52. FILE "10. Kayama.wav" WAVE
  53.   TRACK 10 AUDIO
  54.     TITLE "Kayama"
  55.     PERFORMER "ATB"
  56.     INDEX 01 00:00:00
  57. FILE "11. Beach Vibes by EFF.wav" WAVE
  58.   TRACK 11 AUDIO
  59.     TITLE "Beach Vibes by EFF"
  60.     PERFORMER "ATB"
  61.     INDEX 01 00:00:00
  62. FILE "12. Movin' Melodies.wav" WAVE
  63.   TRACK 12 AUDIO
  64.     TITLE "Movin' Melodies"
  65.     PERFORMER "ATB"
  66.     INDEX 01 00:00:00
  67. FILE "13. Sunburn.wav" WAVE
  68.   TRACK 13 AUDIO
  69.     TITLE "Sunburn"
  70.     PERFORMER "ATB"
  71.     INDEX 01 00:00:00
  72. FILE "14. Don't Stop.wav" WAVE
  73.   TRACK 14 AUDIO
  74.     TITLE "Don't Stop"
  75.     PERFORMER "ATB"
  76.     INDEX 01 00:00:00
复制代码


附件的下载





EAC论坛附件下载












本帖子中包含更多资源

您需要 登录 才可以下载或查看,没有帐号?注册

x
回复 支持 1 反对 0

使用道具 举报

 楼主| 发表于 2014-1-27 23:55:01 | 显示全部楼层
本帖最后由 帅的感动党 于 2016-1-9 18:41 编辑

由于制作水平和文字功底有限,如有介绍不清楚的地方,欢迎跟帖留言。


点我下载EAC 百度云盘
回复 支持 反对

使用道具 举报

发表于 2014-1-28 22:31:13 | 显示全部楼层
非常实用与技术的好教程,感谢小帅
回复 支持 反对

使用道具 举报

发表于 2014-1-29 11:50:49 | 显示全部楼层
终于找到了谢谢
回复 支持 反对

使用道具 举报

发表于 2014-1-29 15:05:25 | 显示全部楼层
試著下載看看,謝謝啦!
回复 支持 反对

使用道具 举报

发表于 2014-2-4 20:35:18 | 显示全部楼层
光驱很重要!!!
回复 支持 反对

使用道具 举报

发表于 2014-2-6 21:34:43 | 显示全部楼层
谢谢版主分享,学习了
回复 支持 反对

使用道具 举报

发表于 2014-2-15 21:14:21 | 显示全部楼层
写的非常不错,感谢分享。
回复 支持 反对

使用道具 举报

发表于 2014-3-8 15:03:44 | 显示全部楼层
是要学习下,以便今后在自己有CD的时候能够正确的使用EAC软件,让它的强大功能为我们提取更精确的数据音乐。

回复 支持 反对

使用道具 举报

发表于 2014-4-3 11:47:45 | 显示全部楼层
感谢楼主分享!学习一下
回复 支持 反对

使用道具 举报

发表于 2014-4-8 20:01:25 | 显示全部楼层
感謝大大的分享啊
回复 支持 反对

使用道具 举报

发表于 2014-4-10 23:57:35 | 显示全部楼层
呵呵,太全了,我还一位自己还行,完了,
回复 支持 反对

使用道具 举报

发表于 2014-4-19 12:12:44 | 显示全部楼层
好东西 这个要顶
回复 支持 反对

使用道具 举报

您需要登录后才可以回帖 登录 | 注册

本版积分规则

小黑屋|Archiver|百事高 ( 琼ICP备10002136号

GMT+8, 2017-4-30 17:15 , Processed in 1.357203 second(s), 23 queries , Gzip On, Memcache On.

Powered by Discuz! X3.2

© 2005-2014 BESGOLD.COM

快速回复 返回顶部 返回列表